» » The Guitar Of Lonnie Johnson taught by Ari Eisinger
Topic information
  • Views:
  • Author: mitsumi
  • Date: 15-01-2019, 03:47
15-01-2019, 03:47

The Guitar Of Lonnie Johnson taught by Ari Eisinger

Category: Video Tutorials

The Guitar Of Lonnie Johnson taught by Ari Eisinger

The Guitar Of Lonnie Johnson taught by Ari Eisinger
WEBRip | English | AVI + PDF Guide | 352 x 288 | XviD ~697 kbps | 29.970 fps
MP3 128 Kbps 44.1 KHz | 2 channels | 02:46:19 | 1004.1 MB
Genre: eLearning Video / Guitar lesson

Lonnie Johnson pioneered the single-string solo guitar styles that we are accustomed to hearing today in rock, blues and jazz music. He played with blues and jazz greats including Texas Alexander, Duke Ellingon, Louie Armstrong and Bessie Smith, and used the guitar as a solo instrument in jazz bands years before Charlie Christian. His recorded blues and jazz solos, including his famous duets with the early jazz guitarist Eddie Lang, are exemplary both for their incredibly beautiful guitar tone and for their sheer, jaw-dropping virtuosity. His To Do This You Got To Know How remains one of the most amazing guitar solos ever recorded.

Although he was influential beyond measure, his reputation has lately taken a back seat to more famous blues players whose influence is often exaggerated as much as Johnson's is underestimated.
In this double DVD, the first devoted in its entirety to the guitar style of Lonnie Johnson, Ari Eisinger explores Lonnie Johnson's blues style in detail, presenting stylistic hallmarks of Johnson's playing including a discussion of left hand fingerings, use of diminished chords and Lonnie's blues playing in the Key of D. Ari teaches eight guitar breaks from some of Lonnie's best tunes. These include his instrumental masterpiece To Do This You Got To Know How, his jazzy Uncle Ned Don't Use Your Head, his evocative Woke Up With the Blues In My Fingers and I'm So Tired Of Living All Alone, Lonnie's version of the song Skip James recorded as I'm So Glad.

also You can find my other great:
https://rapu.world/search/?category_slug=&query=Guitar&language=7&age=&author=ParRus&search=1


General
Complete name : Disc1.avi
Format : AVI
Format/Info : Audio Video Interleave
File size : 584 MiB
Duration : 1 h 36 min
Overall bit rate : 843 kb/s

Video
ID : 0
Format : MPEG-4 Visual
Format profile : [email protected]
Format settings, BVOP : No
Format settings, QPel : No
Format settings, GMC : No warppoints
Format settings, Matrix : Default (H.263)
Codec ID : XVID
Codec ID/Hint : XviD
Duration : 1 h 36 min
Bit rate : 697 kb/s
Width : 352 pixels
Height : 288 pixels
Display aspect ratio : 1.222
Frame rate : 29.970 (30000/1001) FPS
Original frame rate : 29.000 FPS
Color space : YUV
Chroma subsampling : 4:2:0
Bit depth : 8 bits
Scan type : Progressive
Compression mode : Lossy
Bits/(Pixel*Frame) : 0.230
Stream size : 483 MiB (83%)
Writing library : XviD 1.2.1 (UTC 2008-12-04)

Audio
ID : 1
Format : MPEG Audio
Format version : Version 1
Format profile : Layer 3
Format settings : Joint stereo
Codec ID : 55
Codec ID/Hint : MP3
Duration : 1 h 36 min
Bit rate mode : Constant
Bit rate : 128 kb/s
Channel(s) : 2 channels
Sampling rate : 44.1 kHz
Compression mode : Lossy
Stream size : 88.6 MiB (15%)
Alignment : Aligned on interleaves
Interleave, duration : 26 ms (0.78 video frame)
Interleave, preload duration : 26 ms
Writing library : LAME3.98.2

Screenshots


The Guitar Of Lonnie Johnson taught by Ari Eisinger

The Guitar Of Lonnie Johnson taught by Ari Eisinger

The Guitar Of Lonnie Johnson taught by Ari Eisinger


Download link:

uploadgig_com:
http://uploadgig.com/file/download/0F08F56f7db71aa7/72eeq.Booklet.pdf
http://uploadgig.com/file/download/1c874c855201f84f/72eeq.Disc1.avi
http://uploadgig.com/file/download/d11c6f2763857557/72eeq.Disc2.avi

rapidgator_net:
https://rapidgator.net/file/2eedc99dfb46b2b6be4cfb7132a3696b/72eeq.Booklet.pdf.html
https://rapidgator.net/file/af03013376f754f59f699c0c3e469d08/72eeq.Disc1.avi.html
https://rapidgator.net/file/a7e1b23bcecf5ab51f2c8262f935137c/72eeq.Disc2.avi.html

nitroflare_com:
http://nitroflare.com/view/2C0C735E4AFCA94/72eeq.Booklet.pdf
http://nitroflare.com/view/8138422030D1B64/72eeq.Disc1.avi
http://nitroflare.com/view/7816BAA661B14B8/72eeq.Disc2.avi


Links are Interchangeable - No Password - Single Extraction


The Guitar Of Lonnie Johnson taught by Ari Eisinger
Self taught Grandmaster | taught to havesex 1981 best movies adult 18 hot 2014 | Slow Blues in E taught by Stefan Grossman TABS | Blonde teen Elaina Raye gets taught how to fuck properly by Diana Doll | Udemy Guitar Learn 12 Must Know Beginner Rock Guitar Riffs | ample guitar t acoustic guitar vi download torrent | Ample Guitar T Acoustic Guitar the pirate bay | Ample Guitar T Acoustic Guitar VI download | Ample Guitar T Acoustic Guitar VI torrents

Tags Cloud: Guitar, Lonnie, Johnson, taught, Eisinger

Dear visitor, you are browsing our website as Guest.
We strongly recommend you to register and login to view hidden contents.
Information
Comment on the news site is possible only within (days) days from the date of publication.